星际穿越.Interstellar.2014.IMAX.BD1080P.X264.AAC.Mandarin&English.CHS-ENG.Adans.mp4

July 31, 2021 · 小说/漫画/电影 · 502次阅读

一些信息

General
Complete name                  : H:\星际穿越.Interstellar.2014.IMAX.BD1080P.X264.AAC.Mandarin&English.CHS-ENG.Adans.mp4
Format                         : MPEG-4
Format profile                 : Base Media
Codec ID                       : isom (isom)
File size                      : 8.00 GiB
Duration                       : 2 h 49 min
Overall bit rate mode          : Variable
Overall bit rate               : 6 772 kb/s
Encoded date                   : UTC 2017-10-15 08:39:41
Tagged date                    : UTC 2017-10-15 08:39:41

Video
ID                             : 1
Format                         : AVC
Format/Info                    : Advanced Video Codec
Format profile                 : High@L4.1
Format settings                : CABAC / 4 Ref Frames
Format settings, CABAC         : Yes
Format settings, Reference fra : 4 frames
Codec ID                       : avc1
Codec ID/Info                  : Advanced Video Coding
Duration                       : 2 h 49 min
Bit rate                       : 6 000 kb/s
Maximum bit rate               : 36.9 Mb/s
Width                          : 1 920 pixels
Height                         : 1 080 pixels
Display aspect ratio           : 16:9
Frame rate mode                : Constant
Frame rate                     : 23.976 (24000/1001) FPS
Color space                    : YUV
Chroma subsampling             : 4:2:0
Bit depth                      : 8 bits
Scan type                      : Progressive
Bits/(Pixel*Frame)             : 0.121
Stream size                    : 7.08 GiB (89%)
Title                          : by Adans
Writing library                : x264 core 148 r2744kMod b97ae06
Encoding settings              : cabac=1 / ref=4 / deblock=1:-1:-1 / analyse=0x3:0x133 / me=umh / subme=9 / psy=1 / fade_compensate=0.00 / psy_rd=1.00:0.00 / mixed_ref=1 / me_range=16 / chroma_me=1 / trellis=2 / 8x8dct=1 / cqm=0 / deadzone=21,11 / fast_pskip=1 / chroma_qp_offset=-2 / threads=12 / lookahead_threads=1 / sliced_threads=0 / nr=0 / decimate=1 / interlaced=0 / bluray_compat=0 / constrained_intra=0 / bframes=3 / b_pyramid=2 / b_adapt=2 / b_bias=0 / direct=3 / weightb=1 / open_gop=0 / weightp=2 / keyint=250 / keyint_min=25 / scenecut=40 / intra_refresh=0 / rc_lookahead=60 / rc=2pass / mbtree=1 / bitrate=6000 / ratetol=1.0 / qcomp=0.60 / qpmin=0 / qpmax=69 / qpstep=4 / cplxblur=20.0 / qblur=0.5 / ip_ratio=1.40 / aq=1:1.00
Encoded date                   : UTC 2017-10-15 08:28:11
Tagged date                    : UTC 2017-10-15 08:41:55
Color range                    : Limited
Codec configuration box        : avcC

Audio #1
ID                             : 2
Format                         : AAC LC
Format/Info                    : Advanced Audio Codec Low Complexity
Codec ID                       : mp4a-40-2
Duration                       : 2 h 49 min
Bit rate mode                  : Variable
Bit rate                       : 384 kb/s
Maximum bit rate               : 393 kb/s
Channel(s)                     : 2 channels
Channel layout                 : L R
Sampling rate                  : 48.0 kHz
Frame rate                     : 46.875 FPS (1024 SPF)
Compression mode               : Lossy
Stream size                    : 464 MiB (6%)
Title                          : 英语
Encoded date                   : UTC 2017-10-15 08:29:20
Tagged date                    : UTC 2017-10-15 08:41:55

Audio #2
ID                             : 3
Format                         : AAC LC
Format/Info                    : Advanced Audio Codec Low Complexity
Codec ID                       : mp4a-40-2
Duration                       : 2 h 49 min
Bit rate mode                  : Variable
Bit rate                       : 384 kb/s
Maximum bit rate               : 393 kb/s
Channel(s)                     : 2 channels
Channel layout                 : L R
Sampling rate                  : 48.0 kHz
Frame rate                     : 46.875 FPS (1024 SPF)
Compression mode               : Lossy
Stream size                    : 464 MiB (6%)
Title                          : 国语
Encoded date                   : UTC 2017-10-15 08:35:40
Tagged date                    : UTC 2017-10-15 08:41:55
能看就行

地址

樱花: https://drive.sakura-bbs.cn/s/dJ9iA

喝杯水 ENJOY 9

视频

最后编辑于2个月前

添加新评论

avatar

hshx123

143

文章数

1091

评论数

10

分类

新鲜出炉の评论

[教程]便携式WIFI杀手制作指南(未完待续)
滑稽哥
滑稽哥2021-09-24

买什么样的飞线啊找不到

白嫖云函数进行京东自动签到领京豆/红包 Vol.3
dw
dw2021-09-24

大佬,为什么我自动同步部署总是失败,每次都要自己手动同步

白嫖云函数进行京东自动签到领京豆/红包 Vol.3
胡
2021-09-23

先夸赞一波大佬,我是个纯小白,跟着步骤我竟然自己弄成功了。就是现在还有两个问题,一个是这个怎么自动运行,还有一个就是CK过期了是替换哪一个步骤里面的CK。望回复,谢谢

[神器]血池轮回--《3days》
789
7892021-09-23

爱了爱了

[神器]次元囚笼--《君与彼女与彼女之恋》
十具
十具2021-09-22

充言语